Maroon 5 - Daylight [2012] {M4A+MP4} (1080p) X264 [VX] [P2PDL]

Torrent Details

Maroon 5 - Daylight [2012] {M4A+MP4} (1080p) x264 [VX] [P2PDL]

NAME
Maroon 5 - Daylight [2012] {M4A+MP4} (1080p) x264 [VX] [P2PDL].torrent
CATEGORY
Music
INFOHASH
e9516e5b8e75c4e229fc3ccb367e2a3973f49003
SIZE
96 MB in 3 files
ADDED
Uploaded on 13-12-2012 by our crawler pet called "Spidey".
SWARM
1 seeders & 0 peers
RATING
No votes yet.

Please login to vote for this torrent.
Loading...


Description

Release Title: Maroon 5 - Daylight (2012)

A soul shatteringly sweet video. Believe me when I say, you haven't seen anything this uplifting in a long long time.
1080p Full HD MP4 Video
+
128 Kbps/VBR M4A Audio

Code: General
Complete name : Maroon 5 - Daylight (1080p) x264 [VX] [P2PDL].mp4
Format : MPEG-4
Format profile : Base Media / Version 2
Codec ID : mp42
File size : 91.8 MiB
Duration : 9mn 34s

Video
ID : 1
Format : AVC
Format/Info : Advanced Video Codec
Format profile : [email protected]
Width : 1 920 pixels
Height : 1 080 pixels
Display aspect ratio : 16:9
Frame rate mode : Constant
Frame rate : 29.970 fps
Color space : YUV
Chroma subsampling : 4:2:0
Bit depth : 8 bits
Scan type : Progressive
Bits/(Pixel*Frame) : 0.019
Stream size : 82.7 MiB (90%)
Writing library : x264 core 128


Audio
ID : 2
Format : AAC
Format/Info : Advanced Audio Codec
Format profile : LC
Codec ID : 40
Duration : 9mn 34s
Bit rate mode : Variable
Bit rate : 128 Kbps
Maximum bit rate : 158 Kbps
Channel(s) : 2 channels
Channel positions : Front: L R
Sampling rate : 48.0 KHz
Compression mode : Lossy
Stream size : 8.77 MiB (10%)


Subtitles : No

Screens:




Thumbs:



------------------------------------------------------------------------

Code: Notes:

* Recommended to use latest version VLC Media Player.
* Install shark007 codecs in case of any kind of problem in playback (For non-VLC Media Player users).
* Alternatively, install Core AVC codecs, the fastest decoder that there is coupled with Community Center Codec Pack and play on Windows Media Player Classic.

Greets to: VYTO, a2zRG, staff members at ExtraTorrent, TPB, H33T, KAT, 1337x, PublicHD, Ahashare, TorrentMafia, BTScene, P2PDL, and all others

Encoder Notes: Looking For Early Access To Anything You Can Provide DVDScr, R5, DVDRips, BluRay, Direct Audio, Early Music
Releases, Seedboxes, Links, Dedicated Servers anything u can provide, Advance / Promo CDs/DVDs. If You Got anything to
offer contact me at "[email protected]"



Files in this torrent

FILENAMESIZE
Info.nfo12.4 KB
Maroon 5 - Daylight (1080p) x264 [VX] [P2PDL].mp491.8 MB
Maroon 5 - Daylight.m4a4 MB
.