Jason Aldean - Take A Little Ride [Music Video] 720p [Sbyky].mp4

Torrent Details

Jason Aldean - Take A Little Ride [Music Video] 720p [Sbyky].mp4

NAME
Jason Aldean - Take A Little Ride [Music Video] 720p [Sbyky].mp4.torrent
CATEGORY
Music
INFOHASH
58520b004836117aef41d2867f4535a61d6a98b7
SIZE
63 MB in 1 file
ADDED
Uploaded on 14-08-2013 by our crawler pet called "Spidey".
SWARM
0 seeders & 0 peers
RATING
No votes yet.

Please login to vote for this torrent.
Loading...


Description

General
Complete name : Jason Aldean - Take A Little Ride [Music Video] 720p [Sbyky].mp4
Format : MPEG-4
Format profile : Base Media / Version 2
Codec ID : mp42
File size : 63.0 MiB
Duration : 3mn 4s
Overall bit rate mode : Variable
Overall bit rate : 2 867 Kbps
Encoded date : UTC 2013-04-11 16:18:18
Tagged date : UTC 2013-04-11 16:18:18

Video
ID : 1
Format : AVC
Format/Info : Advanced Video Codec
Format profile : [email protected]
Format settings, CABAC : Yes
Format settings, ReFrames : 1 frame
Codec ID : avc1
Codec ID/Info : Advanced Video Coding
Duration : 3mn 4s
Bit rate : 2 673 Kbps
Maximum bit rate : 6 826 Kbps
Width : 1 280 pixels
Height : 720 pixels
Display aspect ratio : 16:9
Frame rate mode : Constant
Frame rate : 29.970 fps
Color space : YUV
Chroma subsampling : 4:2:0
Bit depth : 8 bits
Scan type : Progressive
Bits/(Pixel*Frame) : 0.097
Stream size : 58.7 MiB (93%)
Tagged date : UTC 2013-04-11 16:18:28

Audio
ID : 2
Format : AAC
Format/Info : Advanced Audio Codec
Format profile : LC
Codec ID : 40
Duration : 3mn 4s
Bit rate mode : Variable
Bit rate : 192 Kbps
Maximum bit rate : 201 Kbps
Channel(s) : 2 channels
Channel positions : Front: L R
Sampling rate : 44.1 KHz
Compression mode : Lossy
Stream size : 4.22 MiB (7%)
Title : IsoMedia File Produced by Google, 5-11-2011
Encoded date : UTC 2013-04-11 16:18:25
Tagged date : UTC 2013-04-11 16:18:28

Shared By Sbyky

Discussion

Comments 0

Post Your Comment

Files in this torrent

FILENAMESIZE
Jason Aldean - Take A Little Ride [Music Video] 720p [Sbyky].mp463 MB
.