Big Sean Ft. Lil Wayne & Jhene Aiko - Beware [Explicit] 720p [Sbyky].mp4

Torrent Details

Big Sean Ft. Lil Wayne & Jhene Aiko - Beware [Explicit] 720p [Sbyky].mp4

NAME
Big Sean Ft. Lil Wayne & Jhene Aiko - Beware [Explicit] 720p [Sbyky].mp4.torrent
CATEGORY
Music
INFOHASH
6641e0406e386b62f602b72e1bbc2663bda507d7
SIZE
82 MB in 1 file
ADDED
Uploaded on 26-08-2013 by our crawler pet called "Spidey".
SWARM
1 seeders & 0 peers
RATING
No votes yet.

Please login to vote for this torrent.
Loading...


Description



General
Complete name : Big Sean Ft. Lil Wayne & Jhene Aiko - Beware [Explicit] 720p [Sbyky].mp4
Format : MPEG-4
Format profile : Base Media / Version 2
Codec ID : mp42
File size : 81.7 MiB
Duration : 3mn 58s
Overall bit rate mode : Variable
Overall bit rate : 2 872 Kbps
Encoded date : UTC 2013-08-17 07:42:30
Tagged date : UTC 2013-08-17 07:42:30

Video
ID : 1
Format : AVC
Format/Info : Advanced Video Codec
Format profile : High@L3.1
Format settings, CABAC : Yes
Format settings, ReFrames : 1 frame
Format settings, GOP : M=1, N=60
Codec ID : avc1
Codec ID/Info : Advanced Video Coding
Duration : 3mn 58s
Bit rate : 2 678 Kbps
Maximum bit rate : 5 986 Kbps
Width : 1 280 pixels
Height : 720 pixels
Display aspect ratio : 16:9
Frame rate mode : Constant
Frame rate : 23.976 fps
Color space : YUV
Chroma subsampling : 4:2:0
Bit depth : 8 bits
Scan type : Progressive
Bits/(Pixel*Frame) : 0.121
Stream size : 76.2 MiB (93%)
Tagged date : UTC 2013-08-17 07:42:35

Audio
ID : 2
Format : AAC
Format/Info : Advanced Audio Codec
Format profile : LC
Codec ID : 40
Duration : 3mn 58s
Bit rate mode : Variable
Bit rate : 192 Kbps
Maximum bit rate : 205 Kbps
Channel(s) : 2 channels
Channel positions : Front: L R
Sampling rate : 44.1 KHz
Compression mode : Lossy
Stream size : 5.46 MiB (7%)
Title : IsoMedia File Produced by Google, 5-11-2011
Encoded date : UTC 2013-08-17 07:42:33
Tagged date : UTC 2013-08-17 07:42:35

Shared By Sbyky

Discussion

Comments 0

Post Your Comment

Files in this torrent

FILENAMESIZE
Big Sean Ft. Lil Wayne & Jhene Aiko - Beware [Explicit] 720p [Sbyky].mp481.7 MB
.