Ariana Grande Ft. Big Sean - Right There 720p X264 AAC E-Subs [GWC].mp4

Torrent Details

Ariana Grande ft. Big Sean - Right There 720p x264 AAC E-Subs [GWC].mp4

NAME
Ariana Grande ft. Big Sean - Right There 720p x264 AAC E-Subs [GWC].mp4.torrent
CATEGORY
Music
INFOHASH
d60d485509ef79c78413661d2e1de859b4a79c5e
SIZE
80 MB in 1 file
ADDED
Uploaded on 30-10-2013 by our crawler pet called "Spidey".
SWARM
1 seeders & 0 peers
RATING
No votes yet.

Please login to vote for this torrent.


Description

Ariana Grande ft. Big Sean - Right There 720p x264 AAC E-Subs [GWC]



In this love story remake of ‘Romeo & Juliet’ Ariana lives out a fairytale in the treatment, as she attends a ball in search of her Prince Charming.
Grande calls on Arnold Schwarzenegger’s son as Romeo and Big Sean as a priest.
She throws a masquarade party, which turns into an almost raunchy pool party










FOLLOW ON FACEBOOK :









MEDIA INFO :

General
Format : MPEG-4
File size : 79.6 MiB
Duration : 4mn 18s
Overall bit rate mode : Variable
Overall bit rate : 2 579 Kbps

Video
Format : AVC
Format profile : [email protected]
Format settings, CABAC : Yes
Duration : 4mn 18s
Width : 1 280 pixels
Height : 720 pixels
Display aspect ratio : 16:9
Frame rate : 23.976 fps
Stream size : 76.9 MiB (97%)

Audio
Format : AAC
Format profile : LC
Duration : 4mn 18s
Bit rate mode : Variable
Channel(s) : 2 channels
Sampling rate : 48.0 KHz
Stream size : 2.55 MiB (3%)
Language : English

Text
Format : Timed Text
Duration : 4mn 18s
Stream size : 3.42 KiB (0%)
Title : English Subtitle by [GWC]
Language : En

Discussion

Comments 0

Post Your Comment

Files in this torrent

FILENAMESIZE
Ariana Grande ft. Big Sean - Right There 720p x264 AAC E-Subs [GWC].mp479.6 MB
.