Ariana Grande Ft. Big Sean - Right There [Music Video] 720p [Sbyky].MP4

Torrent Details

Ariana Grande Ft. Big Sean - Right There [Music Video] 720p [Sbyky].MP4

NAME
Ariana Grande Ft. Big Sean - Right There [Music Video] 720p [Sbyky].MP4.torrent
CATEGORY
Music
INFOHASH
41cea7f2ea8dcad81c7a0bb513096147d6c76085
SIZE
63 MB in 1 file
ADDED
Uploaded on 01-12-2013 by our crawler pet called "Spidey".
SWARM
0 seeders & 1 peers
RATING
No votes yet.

Please login to vote for this torrent.


Description

General
Complete name : Ariana Grande Ft. Big Sean - Right There [Music Video] 720p [Sbyky].MP4
Format : MPEG-4
Format profile : Base Media
Codec ID : isom
File size : 63.4 MiB
Duration : 4mn 18s
Overall bit rate mode : Variable
Overall bit rate : 2 054 Kbps
Encoded date : UTC 2013-11-12 06:00:12
Tagged date : UTC 2013-11-12 06:00:12

Video
ID : 1
Format : AVC
Format/Info : Advanced Video Codec
Format profile : [email protected]
Format settings, CABAC : Yes
Format settings, ReFrames : 3 frames
Codec ID : avc1
Codec ID/Info : Advanced Video Coding
Duration : 4mn 18s
Bit rate : 1 797 Kbps
Width : 1 280 pixels
Height : 720 pixels
Display aspect ratio : 16:9
Frame rate mode : Variable
Frame rate : 23.976 fps
Minimum frame rate : 23.974 fps
Maximum frame rate : 4 736.842 fps
Color space : YUV
Chroma subsampling : 4:2:0
Bit depth : 8 bits
Scan type : Progressive
Bits/(Pixel*Frame) : 0.081
Stream size : 55.4 MiB (87%)
Encoded date : UTC 2013-11-12 06:00:12
Tagged date : UTC 2013-11-12 06:00:12

Audio
ID : 2
Format : AAC
Format/Info : Advanced Audio Codec
Format profile : LC
Codec ID : 40
Duration : 4mn 18s
Bit rate mode : Variable
Bit rate : 254 Kbps
Channel(s) : 2 channels
Channel positions : Front: L R
Sampling rate : 44.1 KHz
Compression mode : Lossy
Delay relative to video : 42ms
Stream size : 7.82 MiB (12%)
Encoded date : UTC 2013-11-12 05:59:34
Tagged date : UTC 2013-11-12 05:59:34

Shared By Sbyky

Discussion

Comments 0

Post Your Comment

Files in this torrent

FILENAMESIZE
Ariana Grande Ft. Big Sean - Right There [Music Video] 720p [Sbyky].MP463.4 MB
.