Arrival.2013.720p.BRRip.x264-Fastbet99

Torrent Details

Arrival.2013.720p.BRRip.x264-Fastbet99

NAME
Arrival.2013.720p.BRRip.x264-Fastbet99.torrent
CATEGORY
Movies
INFOHASH
5ebd8306fdc7d184b1232569c0a76e212f2c835a
SIZE
600 MB in 4 files
ADDED
Uploaded on 10-01-2014 by our crawler pet called "Spidey".
SWARM
68 seeders & 296 peers
RATING
No votes yet.

Please login to vote for this torrent.
Loading...


Description

Arrival (2013)

IMDB Info : http://www.imdb.com/title/tt3404240

Source : XSREEM (Thanks)
Complete name : Arrival.2013.720p.BRRip.x264-Fastbet99.mp4
Format : MPEG-4
Format profile : Base Media
Codec ID : isom
File size : 600 MiB
Duration : 35mn 7s
Overall bit rate mode : Variable
Overall bit rate : 2 387 Kbps

Video
ID : 1
Format : AVC
Format/Info : Advanced Video Codec
Format profile : High@L4.1
Format settings, CABAC : Yes
Format settings, ReFrames : 4 frames
Codec ID : avc1
Codec ID/Info : Advanced Video Coding
Duration : 35mn 7s
Bit rate : 2 288 Kbps
Maximum bit rate : 11.1 Mbps
Width : 1 280 pixels
Height : 720 pixels
Display aspect ratio : 16:9
Frame rate mode : Constant
Frame rate : 23.976 fps
Color space : YUV
Chroma subsampling : 4:2:0
Bit depth : 8 bits
Scan type : Progressive
Bits/(Pixel*Frame) : 0.104
Stream size : 575 MiB (96%)
Writing library : x264 core 138 r2358 9e941d1

Audio
ID : 2
Format : AAC
Format/Info : Advanced Audio Codec
Format profile : LC
Codec ID : 40
Duration : 35mn 7s
Bit rate mode : Variable
Bit rate : 96.0 Kbps
Maximum bit rate : 111 Kbps
Channel count : 2 channels
Channel positions : Front: L R
Sampling rate : 48.0 KHz
Compression mode : Lossy
Stream size : 24.1 MiB (4%)
Encoder : Fastbet99

Discussion

Comments 0

Post Your Comment

Files in this torrent

FILENAMESIZE
Arrival.2013.720p.BRRip.x264-Fastbet99.mp4599.7 MB
Arrival.2013.720p.BRRip.x264-Fastbet99.mp4.jpg236.7 KB
NFO.txt2.5 KB
read me.txt120 B
.