Young Money Ft. Tyga, Nicki Minaj & Lil Wayne - Senile [Explicit] 1080p [Sbyky].MP4

Torrent Details

Young Money Ft. Tyga, Nicki Minaj & Lil Wayne - Senile [Explicit] 1080p [Sbyky].MP4

NAME
Young Money Ft. Tyga, Nicki Minaj & Lil Wayne - Senile [Explicit] 1080p [Sbyky].MP4.torrent
CATEGORY
Music
INFOHASH
428941360ce96f246bc881380b2bad3f113cadb6
SIZE
105 MB in 1 file
ADDED
Uploaded on 04-05-2014 by our crawler pet called "Spidey".
SWARM
1 seeders & 0 peers
RATING
No votes yet.

Please login to vote for this torrent.


Description

General
Complete name : Young Money Ft. Tyga, Nicki Minaj & Lil Wayne - Senile [Explicit] 1080p [Sbyky].MP4
Format : MPEG-4
Format profile : Base Media
Codec ID : isom
File size : 105 MiB
Duration : 3mn 53s
Overall bit rate mode : Variable
Overall bit rate : 3 775 Kbps
Encoded date : UTC 2014-04-17 19:43:12
Tagged date : UTC 2014-04-17 19:43:12

Video
ID : 1
Format : AVC
Format/Info : Advanced Video Codec
Format profile : [email protected] /* */
Format settings, CABAC : Yes
Format settings, ReFrames : 2 frames
Codec ID : avc1
Codec ID/Info : Advanced Video Coding
Duration : 3mn 53s
Bit rate : 3 646 Kbps
Width : 1 920 pixels
Height : 1 080 pixels
Display aspect ratio : 16:9
Frame rate mode : Variable
Frame rate : 23.976 fps
Minimum frame rate : 23.974 fps
Maximum frame rate : 24.390 fps
Color space : YUV
Chroma subsampling : 4:2:0
Bit depth : 8 bits
Scan type : Progressive
Bits/(Pixel*Frame) : 0.073
Stream size : 101 MiB (97%)
Encoded date : UTC 2014-04-17 19:43:12
Tagged date : UTC 2014-04-17 19:43:12

Audio
ID : 2
Format : AAC
Format/Info : Advanced Audio Codec
Format profile : LC
Codec ID : 40
Duration : 3mn 53s
Bit rate mode : Variable
Bit rate : 126 Kbps
Channel(s) : 2 channels
Channel positions : Front: L R
Sampling rate : 44.1 KHz
Compression mode : Lossy
Stream size : 3.49 MiB (3%)
Encoded date : UTC 2014-04-17 19:42:54
Tagged date : UTC 2014-04-17 19:42:54

Shared By Sbyky

Discussion

Comments 0

Post Your Comment

Files in this torrent

FILENAMESIZE
Young Money Ft. Tyga, Nicki Minaj & Lil Wayne - Senile [Explicit] 1080p [Sbyky].MP4105 MB
.