Back.to.the.Future.Part.III.ITA.ENG.AC3.BDRip.1080p.X265_ZMachine.mkv

Torrent Details

Back.to.the.Future.Part.III.ITA.ENG.AC3.BDRip.1080p.X265_ZMachine.mkv

NAME
Back.to.the.Future.Part.III.ITA.ENG.AC3.BDRip.1080p.X265_ZMachine.mkv.torrent
CATEGORY
Movies
INFOHASH
74ca3d061314f2050da42a0a58cfc6780e025b67
SIZE
2.8 GB in 1 file
ADDED
Uploaded on 20-09-2014 by our crawler pet called "Spidey".
SWARM
8 seeders & 1 peers
RATING
No votes yet.

Please login to vote for this torrent.
Loading...


Description

Back to the Future: Part III - ZMachine

Ritorno al Futuro: Part III - ZMachine

Screenshots






Mediainfo

General
Unique ID : 211734524074879539146290769911675330958 (0x9F4A96054082A47E9436E9A0C1AFA18E)
Complete name : Desktop/Back.to.the.Future.Part.III.ITA.ENG.AC3.BDRip.1080p.X265_ZMachine.mkv
Format : Matroska
Format version : Version 4 / Version 2
File size : 2.78 GiB
Duration : 1h 58mn
Overall bit rate : 3 370 Kbps
Movie name : Ritorno al Futuro: III - ZMachine
Encoded date : UTC 2014-09-19 10:31:50
Writing application : mkvmerge v7.2.0 ('On Every Street') 32bit built on Sep 13 2014 15:42:11
Writing library : libebml v1.3.0 + libmatroska v1.4.1

Video
ID : 1
Format : HEVC
Format/Info : High Efficiency Video Coding
Codec ID : V_MPEGH/ISO/HEVC
Duration : 1h 58mn
Bit rate : 2 407 Kbps
Width : 1 920 pixels
Height : 1 040 pixels
Display aspect ratio : 1.85:1
Frame rate mode : Constant
Frame rate : 23.976 fps
Bits/(Pixel*Frame) : 0.050
Stream size : 1.99 GiB (71%)
Title : Video H.265 (Encoded by ZMachine)
Default : Yes
Forced : Yes

Audio #1
ID : 2
Format : AC-3
Format/Info : Audio Coding 3
Mode extension : CM (complete main)
Format settings, Endianness : Big
Codec ID : A_AC3
Duration : 1h 58mn
Bit rate mode : Constant
Bit rate : 448 Kbps
Channel count : 6 channels
Channel positions : Front: L C R, Side: L R, LFE
Sampling rate : 48.0 KHz
Bit depth : 16 bits
Compression mode : Lossy
Stream size : 379 MiB (13%)
Title : Audio AC3
Language : Italian
Default : Yes
Forced : No

Audio #2
ID : 3
Format : AC-3
Format/Info : Audio Coding 3
Mode extension : CM (complete main)
Format settings, Endianness : Big
Codec ID : A_AC3
Duration : 1h 58mn
Bit rate mode : Constant
Bit rate : 448 Kbps
Channel count : 6 channels
Channel positions : Front: L C R, Side: L R, LFE
Sampling rate : 48.0 KHz
Bit depth : 16 bits
Compression mode : Lossy
Stream size : 379 MiB (13%)
Title : Audio AC3
Language : English
Default : No
Forced : No

Text #1
ID : 4
Format : ASS
Codec ID : S_TEXT/ASS
Codec ID/Info : Advanced Sub Station Alpha
Compression mode : Lossless
Title : Sub Forced
Language : Italian
Default : Yes
Forced : Yes

Text #2
ID : 5
Format : ASS
Codec ID : S_TEXT/ASS
Codec ID/Info : Advanced Sub Station Alpha
Compression mode : Lossless
Title : Sub
Language : Italian
Default : No
Forced : No

Text #3
ID : 6
Format : ASS
Codec ID : S_TEXT/ASS
Codec ID/Info : Advanced Sub Station Alpha
Compression mode : Lossless
Title : Sub
Language : English
Default : No
Forced : No

Menu
00:00:00.000 : Back Again
00:02:50.336 : Main Titles
00:05:01.134 : A Letter From Doc
00:12:42.011 : Doc's Destiny
00:15:49.365 : Back to 1885
00:22:15.208 : Clint Eastwood?
00:30:03.593 : Mad Dog
00:33:16.119 : Reunited
00:37:44.679 : Out of Gas
00:41:54.303 : Clara
00:50:43.331 : The Town Festival
00:56:58.665 : Trouble With Tannen
01:06:25.439 : The Course of the Future
01:16:23.078 : Late for a Train
01:20:44.840 : Showdown
01:30:33.678 : Racing Against Time
01:42:19.758 : Back to Normal
01:46:07.235 : Marty's Choice
01:48:07.939 : Meet the Family
01:51:52.831 : End Titles
01:58:17.381 : End Titles 2

Discussion

Comments 0

Post Your Comment

Files in this torrent

FILENAMESIZE
Back.to.the.Future.Part.III.ITA.ENG.AC3.BDRip.1080p.X265_ZMachine.mkv2.8 GB
.