Migos - Fight Night [Music Video] 1080p [Sbyky].mp4

Torrent Details

Migos - Fight Night [Music Video] 1080p [Sbyky].mp4

NAME
Migos - Fight Night [Music Video] 1080p [Sbyky].mp4.torrent
CATEGORY
Movies
INFOHASH
79688f644ab8af35a7d0cde563f10e3adc9e5905
SIZE
121 MB in 1 file
ADDED
Uploaded on 28-01-2015 by our crawler pet called "Spidey".
SWARM
0 seeders & 0 peers
RATING
No votes yet.

Please login to vote for this torrent.
Loading...


Description

For 720p: http://kickass.so/billboard-...014-720p-sbyky-t9958671.html

General
Complete name : Migos - Fight Night [Music Video] 1080p [Sbyky].mp4
Format : MPEG-4
Format profile : Base Media
Codec ID : isom
File size : 121 MiB
Duration : 4mn 12s
Overall bit rate mode : Variable
Overall bit rate : 4 006 Kbps
Encoded date : UTC 2014-11-26 07:31:24
Tagged date : UTC 2014-11-26 07:31:24

Video
ID : 1
Format : AVC
Format/Info : Advanced Video Codec
Format profile : [email protected]
Format settings, CABAC : Yes
Format settings, ReFrames : 3 frames
Codec ID : avc1
Codec ID/Info : Advanced Video Coding
Duration : 4mn 12s
Bit rate : 3 877 Kbps
Width : 1 920 pixels
Height : 1 080 pixels
Display aspect ratio : 16:9
Frame rate mode : Variable
Frame rate : 23.976 fps
Minimum frame rate : 23.974 fps
Maximum frame rate : 23.981 fps
Color space : YUV
Chroma subsampling : 4:2:0
Bit depth : 8 bits
Scan type : Progressive
Bits/(Pixel*Frame) : 0.078
Stream size : 117 MiB (97%)
Encoded date : UTC 2014-11-26 07:31:24
Tagged date : UTC 2014-11-26 07:31:24

Audio
ID : 2
Format : AAC
Format/Info : Advanced Audio Codec
Format profile : LC
Codec ID : 40
Duration : 4mn 12s
Bit rate mode : Variable
Bit rate : 126 Kbps
Channel(s) : 2 channels
Channel positions : Front: L R
Sampling rate : 44.1 KHz
Compression mode : Lossy
Stream size : 3.78 MiB (3%)
Encoded date : UTC 2014-11-26 07:29:10
Tagged date : UTC 2014-11-26 07:29:10

Shared By Sbyky

Discussion

Comments 0

Post Your Comment

Files in this torrent

FILENAMESIZE
Migos - Fight Night [Music Video] 1080p [Sbyky].mp4120.6 MB
.