Migos - Handsome And Wealthy [Music Video] 1080p [Sbyky].mp4

Torrent Details

Migos - Handsome And Wealthy [Music Video] 1080p [Sbyky].mp4

NAME
Migos - Handsome And Wealthy [Music Video] 1080p [Sbyky].mp4.torrent
CATEGORY
Movies
INFOHASH
2c89e731338f5e88b21f928f9e10afebfd6f24ae
SIZE
107 MB in 1 file
ADDED
Uploaded on 02-02-2015 by our crawler pet called "Spidey".
SWARM
0 seeders & 0 peers
RATING
No votes yet.

Please login to vote for this torrent.
Loading...


Description

For 720p: http://kickass.so/billboard-...014-720p-sbyky-t9958671.html

General
Complete name : Migos - Handsome And Wealthy [Music Video] 1080p [Sbyky].mp4
Format : MPEG-4
Format profile : Base Media
Codec ID : isom
File size : 107 MiB
Duration : 4mn 30s
Overall bit rate mode : Variable
Overall bit rate : 3 334 Kbps
Encoded date : UTC 2014-11-29 06:31:07
Tagged date : UTC 2014-11-29 06:31:07

Video
ID : 1
Format : AVC
Format/Info : Advanced Video Codec
Format profile : [email protected]
Format settings, CABAC : Yes
Format settings, ReFrames : 3 frames
Codec ID : avc1
Codec ID/Info : Advanced Video Coding
Duration : 4mn 30s
Bit rate : 3 205 Kbps
Width : 1 920 pixels
Height : 1 080 pixels
Display aspect ratio : 16:9
Frame rate mode : Variable
Frame rate : 23.976 fps
Minimum frame rate : 23.974 fps
Maximum frame rate : 23.981 fps
Color space : YUV
Chroma subsampling : 4:2:0
Bit depth : 8 bits
Scan type : Progressive
Bits/(Pixel*Frame) : 0.064
Stream size : 103 MiB (96%)
Encoded date : UTC 2014-11-29 06:31:07
Tagged date : UTC 2014-11-29 06:31:07

Audio
ID : 2
Format : AAC
Format/Info : Advanced Audio Codec
Format profile : LC
Codec ID : 40
Duration : 4mn 30s
Bit rate mode : Variable
Bit rate : 126 Kbps
Channel(s) : 2 channels
Channel positions : Front: L R
Sampling rate : 44.1 KHz
Compression mode : Lossy
Stream size : 4.05 MiB (4%)
Encoded date : UTC 2014-11-29 06:29:45
Tagged date : UTC 2014-11-29 06:29:45

Shared By Sbyky

Discussion

Comments 0

Post Your Comment

Files in this torrent

FILENAMESIZE
Migos - Handsome And Wealthy [Music Video] 1080p [Sbyky].mp4107.4 MB
.