Jason Aldean - Burnin' It Down [Music Video] 1080p [Sbyky].MP4

Torrent Details

Jason Aldean - Burnin' It Down [Music Video] 1080p [Sbyky].MP4

NAME
Jason Aldean - Burnin' It Down [Music Video] 1080p [Sbyky].MP4.torrent
CATEGORY
Movies
INFOHASH
4fe5586daca6a3a89ff91b1aac3b1cd98443d1b2
SIZE
54 MB in 1 file
ADDED
Uploaded on 02-02-2015 by our crawler pet called "Spidey".
SWARM
0 seeders & 0 peers
RATING
No votes yet.

Please login to vote for this torrent.
Loading...


Description

For 720p: http://kickass.so/billboard-...014-720p-sbyky-t9958671.html

General
Complete name : Jason Aldean - Burnin' It Down [Music Video] 1080p [Sbyky].MP4
Format : MPEG-4
Format profile : Base Media
Codec ID : isom
File size : 53.7 MiB
Duration : 3mn 48s
Overall bit rate mode : Variable
Overall bit rate : 1 974 Kbps
Encoded date : UTC 2014-09-02 00:44:13
Tagged date : UTC 2014-09-02 00:44:13

Video
ID : 1
Format : AVC
Format/Info : Advanced Video Codec
Format profile : [email protected]
Format settings, CABAC : Yes
Format settings, ReFrames : 3 frames
Codec ID : avc1
Codec ID/Info : Advanced Video Coding
Duration : 3mn 48s
Bit rate : 1 844 Kbps
Width : 1 920 pixels
Height : 1 080 pixels
Display aspect ratio : 16:9
Frame rate mode : Variable
Frame rate : 23.976 fps
Minimum frame rate : 23.974 fps
Maximum frame rate : 23.981 fps
Color space : YUV
Chroma subsampling : 4:2:0
Bit depth : 8 bits
Scan type : Progressive
Bits/(Pixel*Frame) : 0.037
Stream size : 50.1 MiB (93%)
Encoded date : UTC 2014-09-02 00:44:13
Tagged date : UTC 2014-09-02 00:44:13

Audio
ID : 2
Format : AAC
Format/Info : Advanced Audio Codec
Format profile : LC
Codec ID : 40
Duration : 3mn 48s
Bit rate mode : Variable
Bit rate : 126 Kbps
Channel(s) : 2 channels
Channel positions : Front: L R
Sampling rate : 44.1 KHz
Compression mode : Lossy
Stream size : 3.42 MiB (6%)
Encoded date : UTC 2014-09-02 00:43:06
Tagged date : UTC 2014-09-02 00:43:06

Shared By Sbyky

Discussion

Comments 0

Post Your Comment

Files in this torrent

FILENAMESIZE
Jason Aldean - Burnin' It Down [Music Video] 1080p [Sbyky].MP453.7 MB
.