Maroon 5 - Animals [720p, Lyrics Video][JRR].mp4

Torrent Details

Maroon 5 - Animals [720p, Lyrics Video][JRR].mp4

NAME
Maroon 5 - Animals [720p, Lyrics Video][JRR].mp4.torrent
CATEGORY
Music
INFOHASH
9a0ad27ec20b61db6db4cf31ae9323e50f7cef5f
SIZE
21 MB in 1 file
ADDED
Uploaded on 17-02-2015 by our crawler pet called "Spidey".
SWARM
1 seeders & 0 peers
RATING
No votes yet.

Please login to vote for this torrent.
Loading...


Description

[email protected] /* */
Format settings, CABAC : Yes
Format settings, ReFrames : 4 frames
Codec ID : avc1
Codec ID/Info : Advanced Video Coding
Duration : 3mn 49s
Bit rate mode : Variable
Bit rate : 572 Kbps
Width : 1 280 pixels
Height : 720 pixels
Display aspect ratio : 16:9
Frame rate mode : Constant
Frame rate : 29.970 fps
Color space : YUV
Chroma subsampling : 4:2:0
Bit depth : 8 bits
Scan type : Progressive
Bits/(Pixel*Frame) : 0.021
Stream size : 15.6 MiB (74%)

Audio
ID : 2
Format : AAC
Format/Info : Advanced Audio Codec
Duration : 3mn 49s
Bit rate : 192 Kbps
Maximum bit rate : 240 Kbps
Channel(s) : 2 channels
Channel positions : Front: L R
Sampling rate : 44.1 KHz
Compression mode : Lossy
Delay relative to video : 67ms
Stream size : 5.24 MiB (25%)

Snapshots



 

Discussion

Comments 0

Post Your Comment

Files in this torrent

FILENAMESIZE
Maroon 5 - Animals [720p, Lyrics Video][JRR].mp421 MB
.