Ariana Grande - One Last Time [Music Video] 1080p [Sbyky].mp4

Torrent Details

Ariana Grande - One Last Time [Music Video] 1080p [Sbyky].mp4

NAME
Ariana Grande - One Last Time [Music Video] 1080p [Sbyky].mp4.torrent
CATEGORY
Movies
INFOHASH
e398d81ae32f1c38fb9b00929a65548269c093da
SIZE
99 MB in 1 file
ADDED
Uploaded on 24-02-2015 by our crawler pet called "Spidey".
SWARM
2 seeders & 0 peers
RATING
No votes yet.

Please login to vote for this torrent.
Loading...


Description

General
Complete name : Ariana Grande - One Last Time [Music Video] 1080p [Sbyky].mp4
Format : MPEG-4
Format profile : Base Media
Codec ID : isom
File size : 98.9 MiB
Duration : 4mn 9s
Overall bit rate mode : Variable
Overall bit rate : 3 326 Kbps
Encoded date : UTC 2015-02-18 09:32:55
Tagged date : UTC 2015-02-18 09:32:55

Video
ID : 1
Format : AVC
Format/Info : Advanced Video Codec
Format profile : High@L4.0
Format settings, CABAC : Yes
Format settings, ReFrames : 3 frames
Codec ID : avc1
Codec ID/Info : Advanced Video Coding
Duration : 4mn 9s
Bit rate : 3 197 Kbps
Width : 1 920 pixels
Height : 1 080 pixels
Display aspect ratio : 16:9
Frame rate mode : Variable
Frame rate : 23.976 fps
Minimum frame rate : 23.974 fps
Maximum frame rate : 23.981 fps
Color space : YUV
Chroma subsampling : 4:2:0
Bit depth : 8 bits
Scan type : Progressive
Bits/(Pixel*Frame) : 0.064
Stream size : 95.0 MiB (96%)
Encoded date : UTC 2015-02-18 09:32:55
Tagged date : UTC 2015-02-18 09:32:55

Audio
ID : 2
Format : AAC
Format/Info : Advanced Audio Codec
Format profile : LC
Codec ID : 40
Duration : 4mn 9s
Bit rate mode : Variable
Bit rate : 126 Kbps
Channel(s) : 2 channels
Channel positions : Front: L R
Sampling rate : 44.1 KHz
Compression mode : Lossy
Stream size : 3.73 MiB (4%)
Encoded date : UTC 2015-02-18 09:20:41
Tagged date : UTC 2015-02-18 09:20:41

Shared By Sbyky

Discussion

Comments 0

Post Your Comment

Files in this torrent

FILENAMESIZE
Ariana Grande - One Last Time [Music Video] 1080p [Sbyky].mp498.9 MB
.