J.Cole.Forest.Hills.Drive-Homecoming.2016.HDTV.x264-BATV[rarbg]

Torrent Details

J.Cole.Forest.Hills.Drive-Homecoming.2016.HDTV.x264-BATV[rarbg]

NAME
J.Cole.Forest.Hills.Drive-Homecoming.2016.HDTV.x264-BATV[rarbg].torrent
CATEGORY
Television
INFOHASH
debf4b5dbffdf6c7a65e7a231c00f7d5d5024308
SIZE
584 MB in 3 files
ADDED
Uploaded on 10-01-2016 by our crawler pet called "Spidey".
SWARM
0 seeders & 1 peers
RATING
No votes yet.

Please login to vote for this torrent.
Loading...


Description

http://rarbg.to
J.Cole.Forest.Hills.Drive-Homecoming.2016.HDTV.x264-BATV[rartv]

Screens :


Mediainfo :

Video
ID : 2
Format : AVC
Format/Info : Advanced Video Codec
Format profile : [email protected]
Format settings, CABAC : Yes
Format settings, ReFrames : 5 frames
Codec ID : avc1
Codec ID/Info : Advanced Video Coding
Duration : 1h 24mn
Bit rate : 823 Kbps
Maximum bit rate : 8 368 Kbps
Width : 720 pixels
Height : 404 pixels
Display aspect ratio : 16:9
Frame rate mode : Constant
Frame rate : 23.976 (24000/1001) fps
Color space : YUV
Chroma subsampling : 4:2:0
Bit depth : 8 bits
Scan type : Progressive
Bits/(Pixel*Frame) : 0.118
Stream size : 497 MiB (85%)
Writing library : x264 core 148 r2638 7599210
Encoding settings : cabac=1 / ref=5 / deblock=1:0:0 / analyse=0x3:0x113 / me=umh / subme=8 / psy=1 / psy_rd=1.00:0.00 / mixed_ref=1 / me_range=16 / chroma_me=1 / trellis=1 / 8x8dct=1 / cqm=0 / deadzone=21,11 / fast_pskip=1 / chroma_qp_offset=-2 / threads=13 / lookahead_threads=2 / sliced_threads=0 / nr=0 / decimate=1 / interlaced=0 / bluray_compat=0 / constrained_intra=0 / bframes=3 / b_pyramid=2 / b_adapt=2 / b_bias=0 / direct=3 / weightb=1 / open_gop=0 / weightp=2 / keyint=250 / keyint_min=23 / scenecut=40 / intra_refresh=0 / rc_lookahead=50 / rc=crf / mbtree=1 / crf=23.0 / qcomp=0.60 / qpmin=0 / qpmax=69 / qpstep=4 / ip_ratio=1.40 / aq=1:1.00
Encoded date : UTC 2016-01-10 08:39:43
Tagged date : UTC 2016-01-10 08:53:47
Color range : Limited
Matrix coefficients : BT.709

Audio
ID : 1
Format : AAC
Format/Info : Advanced Audio Codec
Format profile : LC
Codec ID : 40
Duration : 1h 24mn
Bit rate mode : Variable
Bit rate : 141 Kbps
Maximum bit rate : 184 Kbps
Channel(s) : 2 channels
Channel positions : Front: L R
Sampling rate : 48.0 KHz
Frame rate : 46.875 fps (1024 spf)
Compression mode : Lossy
Stream size : 85.0 MiB (15%)
Encoded date : UTC 2016-01-10 08:53:45
Tagged date : UTC 2016-01-10 08:53:47

Discussion

Comments 0

Post Your Comment

Files in this torrent

FILENAMESIZE
J.Cole.Forest.Hills.Drive-Homecoming.2016.HDTV.x264-BATV.mp4584 MB
j.cole.forest.hills.drive-homecoming.2016.hdtv.x264-batv.nfo3.8 KB
RARBG.com.txt34 B
.