The.73rd.Annual.Golden.Globe.Awards.Arrival.Special.2016.720p.HDTV.x264-ALTEREGO[rartv]

Torrent Details

The.73rd.Annual.Golden.Globe.Awards.Arrival.Special.2016.720p.HDTV.x264-ALTEREGO[rartv]

NAME
The.73rd.Annual.Golden.Globe.Awards.Arrival.Special.2016.720p.HDTV.x264-ALTEREGO[rartv].torrent
CATEGORY
Television
INFOHASH
9e55770a86f9cec2ed477415648cc4eaa531dc03
SIZE
987 MB in 3 files
ADDED
Uploaded on 11-01-2016 by our crawler pet called "Spidey".
SWARM
0 seeders & 3 peers
RATING
No votes yet.

Please login to vote for this torrent.
Loading...


Description

http://rarbg.to
The.73rd.Annual.Golden.Globe.Awards.Arrival.Special.2016.720p.HDTV.x264-ALTEREGO[rartv]

Screens :












Mediainfo :

Video
ID : 1
Format : AVC
Format/Info : Advanced Video Codec
Format profile : High@L4.1
Format settings, CABAC : Yes
Format settings, ReFrames : 5 frames
Codec ID : V_MPEG4/ISO/AVC
Duration : 42mn 32s
Bit rate : 2 795 Kbps
Width : 1 280 pixels
Height : 720 pixels
Display aspect ratio : 16:9
Frame rate mode : Constant
Frame rate : 29.970 (30000/1001) fps
Color space : YUV
Chroma subsampling : 4:2:0
Bit depth : 8 bits
Scan type : Progressive
Bits/(Pixel*Frame) : 0.101
Stream size : 850 MiB (86%)
Writing library : x264 core 148 r2638 7599210
Encoding settings : cabac=1 / ref=5 / deblock=1:0:0 / analyse=0x3:0x133 / me=umh / subme=8 / psy=1 / psy_rd=1.00:0.00 / mixed_ref=1 / me_range=16 / chroma_me=1 / trellis=1 / 8x8dct=1 / cqm=0 / deadzone=21,11 / fast_pskip=1 / chroma_qp_offset=-2 / threads=18 / lookahead_threads=3 / sliced_threads=0 / nr=0 / decimate=1 / interlaced=0 / bluray_compat=0 / constrained_intra=0 / bframes=3 / b_pyramid=2 / b_adapt=2 / b_bias=0 / direct=3 / weightb=1 / open_gop=0 / weightp=2 / keyint=300 / keyint_min=29 / scenecut=40 / intra_refresh=0 / rc_lookahead=50 / rc=crf / mbtree=1 / crf=22.0 / qcomp=0.60 / qpmin=0 / qpmax=69 / qpstep=4 / ip_ratio=1.40 / aq=1:1.00
Language : English
Default : Yes
Forced : No
Color range : Limited
Matrix coefficients : BT.709

Audio
ID : 2
Format : AC-3
Format/Info : Audio Coding 3
Mode extension : CM (complete main)
Format settings, Endianness : Big
Codec ID : A_AC3
Duration : 42mn 32s
Bit rate mode : Constant
Bit rate : 384 Kbps
Channel(s) : 6 channels
Channel positions : Front: L C R, Side: L R, LFE
Sampling rate : 48.0 KHz
Frame rate : 31.250 fps (1536 spf)
Compression mode : Lossy
Delay relative to video : 7ms
Stream size : 117 MiB (12%)
Default : Yes
Forced : No

Discussion

Comments 0

Post Your Comment

Files in this torrent

FILENAMESIZE
RARBG.com.txt34 B
The.73rd.Annual.Golden.Globe.Awards.Arrival.Special.2016.720p.HDTV.x264-ALTEREGO.mkv986.9 MB
the.73rd.annual.golden.globe.awards.arrival.special.2016.720p.hdtv.x264-alterego.nfo3.9 KB
.