Saturday.Night.Live.S41E15.Ariana.Grande.720p.NBC.WEBRip.AAC2.0.x264-monkee[rarbg]

Torrent Details

Saturday.Night.Live.S41E15.Ariana.Grande.720p.NBC.WEBRip.AAC2.0.x264-monkee[rarbg]

NAME
Saturday.Night.Live.S41E15.Ariana.Grande.720p.NBC.WEBRip.AAC2.0.x264-monkee[rarbg].torrent
CATEGORY
Television
INFOHASH
b5fed5558c7c25eff7bd675179505d3b0dd8c19b
SIZE
835 MB in 2 files
ADDED
Uploaded on 13-03-2016 by our crawler pet called "Spidey".
SWARM
4 seeders & 0 peers
RATING
No votes yet.

Please login to vote for this torrent.


Description

http://rarbg.to
Saturday.Night.Live.S41E15.Ariana.Grande.720p.NBC.WEBRip.AAC2.0.x264-monkee[rartv]

Screens :


Mediainfo :

Video
ID : 1
Format : AVC
Format/Info : Advanced Video Codec
Format profile : [email protected]
Format settings, CABAC : Yes
Format settings, ReFrames : 1 frame
Codec ID : V_MPEG4/ISO/AVC
Duration : 1h 3mn
Bit rate : 1 696 Kbps
Width : 1 280 pixels
Height : 720 pixels
Display aspect ratio : 16:9
Frame rate mode : Variable
Frame rate : 29.970 (30000/1001) fps
Color space : YUV
Chroma subsampling : 4:2:0
Bit depth : 8 bits
Scan type : Progressive
Bits/(Pixel*Frame) : 0.061
Stream size : 790 MiB (95%)
Writing library : x264 core 120
Encoding settings : cabac=1 / ref=1 / deblock=1:0:0 / analyse=0x3:0x113 / me=hex / subme=6 / psy=1 / psy_rd=1.00:0.00 / mixed_ref=0 / me_range=16 / chroma_me=0 / trellis=1 / 8x8dct=1 / cqm=0 / deadzone=21,11 / fast_pskip=1 / chroma_qp_offset=-2 / threads=8 / sliced_threads=0 / nr=0 / decimate=1 / interlaced=0 / bluray_compat=0 / constrained_intra=0 / bframes=0 / weightp=2 / keyint=150 / keyint_min=25 / scenecut=0 / intra_refresh=0 / rc=abr / mbtree=0 / bitrate=1696 / ratetol=1.0 / qcomp=0.60 / qpmin=10 / qpmax=51 / qpstep=4 / ip_ratio=1.40 / aq=1:1.00
Default : Yes
Forced : No

Audio
ID : 2
Format : AAC
Format/Info : Advanced Audio Codec
Format profile : LC
Codec ID : A_AAC
Duration : 1h 3mn
Bit rate : 96.0 Kbps
Channel(s) : 2 channels
Channel positions : Front: L R
Sampling rate : 44.1 KHz
Frame rate : 43.066 fps (1024 spf)
Compression mode : Lossy
Stream size : 43.8 MiB (5%)
Default : Yes
Forced : No

Text
ID : 3
Format : UTF-8
Codec ID : S_TEXT/UTF8
Codec ID/Info : UTF-8 Plain Text
Duration : 1h 2mn
Bit rate : 239 bps
Count of elements : 1634
Stream size : 109 KiB (0%)
Language : English
Default : No
Forced : No

Discussion

Comments 0

Post Your Comment

Files in this torrent

FILENAMESIZE
RARBG.com.txt34 B
Saturday.Night.Live.S41E15.Ariana.Grande.720p.NBC.WEBRip.AAC2.0.x264-monkee.mkv835.3 MB
.