Star Trek Beyond 2016 TSRip - X264 - AAC - Zi$t-CTRC

Torrent Details

Star Trek Beyond 2016 TSRip - x264 - AAC - Zi$t-CTRC

NAME
Star Trek Beyond 2016 TSRip - x264 - AAC - Zi$t-CTRC.torrent
CATEGORY
Movies
INFOHASH
abf486c03ee77391462ccc79d048f90f299ea924
SIZE
759 MB in 3 files
ADDED
Uploaded on 01-08-2016 by our crawler pet called "Spidey".
SWARM
11 seeders & 5 peers
RATING
No votes yet.

Please login to vote for this torrent.


Description

Note:Sample Included!!!











General
Complete name : Star Trek Beyond 2016
Format : MPEG-4
Format profile : Base Media / Version 2
Codec ID : mp42
File size : 755 MiB
Duration : 1h 53mn
Overall bit rate mode : Variable
Overall bit rate : 932 Kbps


Video
ID : 1
Format : AVC
Format/Info : Advanced Video Codec
Format profile : [email protected]/* */
Format settings, CABAC : Yes
Format settings, ReFrames : 4 frames
Codec ID : avc1
Codec ID/Info : Advanced Video Coding
Duration : 1h 53mn
Bit rate : 731 Kbps
Width : 900 pixels
Height : 380 pixels
Display aspect ratio : 2.35:1
Frame rate mode : Variable
Frame rate : 29.970 fps
Minimum frame rate : 29.412 fps
Maximum frame rate : 30.303 fps
Color space : YUV
Chroma subsampling : 4:2:0
Bit depth : 8 bits
Scan type : Progressive
Bits/(Pixel*Frame) : 0.071
Stream size : 592 MiB (78%)
Writing library : x264 core 142 r2479 dd79a61

Audio
ID : 2
Format : AAC
Format/Info : Advanced Audio Codec
Format profile : LC
Codec ID : 40
Duration : 1h 53mn
Bit rate mode : Variable
Bit rate : 192 Kbps
Channel(s) : 2 channels
Channel positions : Front: L R
Sampling rate : 48.0 KHz
Compression mode : Lossy
Stream size : 156 MiB (21%)
Title : Stereo / Stereo
Language : English
 

Discussion

Comments 0

Post Your Comment

Files in this torrent

FILENAMESIZE
CTRC info.txt433 B
Sample.mp43.7 MB
Star Trek Beyond 2016 TSRip - x264 - AAC - Zi$t-CTRC.mp4754.9 MB
.