Doctor Strange 2016 CAM V.2 ENG X264

Torrent Details

Doctor Strange 2016 CAM V.2 ENG x264

NAME
Doctor Strange 2016 CAM V.2 ENG x264.torrent
CATEGORY
Movies
INFOHASH
62547cff8a309ceb2df80123c7d556c289c4a839
SIZE
1.8 GB in 3 files
ADDED
Uploaded on 31-10-2016 by our crawler pet called "Spidey".
SWARM
115 seeders & 25 peers
RATING
No votes yet.

Please login to vote for this torrent.
Loading...


Description




http://www.imdb.com/title/tt1211837/


A former neurosurgeon embarks on a journey of healing only to be drawn into the world of the mystic arts.

Director: Scott Derrickson
Writers: Jon Spaihts, Scott Derrickson
Stars: Benedict Cumberbatch, Chiwetel Ejiofor, Rachel McAdams
Genres: Action | Adventure | Fantasy | Sci-Fi
Country: USA
Language: English


Doctor Strange 2016 CAM V.2 ENG x264

Language: English
Sample: yes

Format : Matroska
File size : 1.82 GiB
Duration : 1 h 47 min
Overall bit rate mode : Variable
Overall bit rate : 2 427 kb/s
Video
ID : 1
Format : AVC
Format/Info : Advanced Video Codec
Format profile : [email protected]/* */
Format settings, CABAC : Yes
Format settings, ReFrames : 4 frames
Codec ID : V_MPEG4/ISO/AVC
Duration : 1 h 47 min
Bit rate mode : Variable
Bit rate : 2 200 kb/s
Maximum bit rate : 62.5 Mb/s
Width : 720 pixels
Height : 320 pixels
Display aspect ratio : 2.25:1
Frame rate mode : Constant
Frame rate : 29.970 (30000/1001) FPS
Color space : YUV
Chroma subsampling : 4:2:0
Bit depth : 8 bits
Scan type : Progressive
Bits/(Pixel*Frame) : 0.319
Stream size : 1.67 GiB (92%)

Audio
ID : 2
Format : MPEG Audio
Format version : Version 1
Format profile : Layer 3
Mode : Joint stereo
Mode extension : MS Stereo
Codec ID : A_MPEG/L3
Codec ID/Hint : MP3
Duration : 1 h 47 min
Bit rate mode : Constant
Bit rate : 192 kb/s
Channel(s) : 2 channels
Sampling rate : 48.0 kHz
Frame rate : 41.667 FPS (1152 spf)
Compression mode : Lossy
Stream size : 147 MiB (8%)
Writing library : LAME3.99.5
Default : Yes
Forced : No


Discussion

Comments 0

Post Your Comment

Files in this torrent

FILENAMESIZE
doctor code.txt2.2 KB
Doctor Strange 2016 CAM V.2 ENG x264.mkv1.8 GB
Sample.mkv15.7 MB
.