Arrival 2016 HDCAM X264 AC3-TuttyFruity

Torrent Details

Arrival 2016 HDCAM x264 AC3-TuttyFruity

NAME
Arrival 2016 HDCAM x264 AC3-TuttyFruity.torrent
CATEGORY
Movies
INFOHASH
ed479de7b0a026e382c0baa89f58d1257130a7c1
SIZE
2.1 GB in 2 files
ADDED
Uploaded on 18-11-2016 by our crawler pet called "Spidey".
SWARM
315 seeders & 103 peers
RATING
No votes yet.

Please login to vote for this torrent.
Loading...


Description

Arrival 2016 HDCAM x264 AC3-TuttyFruity





http://www.imdb.com/title/tt2543164/


A linguist is recruited by the military to assist in translating alien communications.

Director: Denis Villeneuve
Writers: Eric Heisserer (screenplay), Ted Chiang (based on the story "Story of Your Life" written by)
Stars: Amy Adams, Jeremy Renner, Forest Whitaker
Genres: Drama | Mystery | Sci-Fi | Thriller
Country: USA
Language: English


Arrival 2016 HDCAM x264 AC3-TuttyFruity

iNFO:
Language: English
Runtime: 2hr 19min (end credits removed)
release notes:
Full movie and kisses for tamabin.

Format : MKV
File size : 2.14 GiB
Duration : 2 h 19 min
Overall bit rate mode : Variable
Overall bit rate : 2 199 kb/s

Video
ID : 1
Format : AVC
Format/Info : Advanced Video Codec
Format profile : [email protected]/* */
Format settings, CABAC : Yes
Format settings, ReFrames : 4 frames
Codec ID : V_MPEG4/ISO/AVC
Duration : 2 h 19 min
Bit rate mode : Variable
Bit rate : 2 005 kb/s
Maximum bit rate : 62.5 Mb/s
Width : 720 pixels
Height : 320 pixels
Display aspect ratio : 2.25:1
Frame rate mode : Constant
Frame rate : 28.999 FPS
Original frame rate : 29.000 FPS
Color space : YUV
Chroma subsampling : 4:2:0
Bit depth : 8 bits
Scan type : Progressive
Bits/(Pixel*Frame) : 0.300
Stream size : 1.95 GiB (91%)


Audio
ID : 2
Format : AC-3
Format/Info : Audio Coding 3
Mode extension : CM (complete main)
Format settings, Endianness : Big
Codec ID : A_AC3
Duration : 2 h 19 min
Bit rate mode : Constant
Bit rate : 192 kb/s
Channel(s) : 2 channels
Channel positions : Front: L R
Sampling rate : 44.1 kHz
Frame rate : 28.711 FPS (1536 spf)
Compression mode : Lossy
Stream size : 191 MiB (9%)
Default : Yes
Forced : No


Screens:



SAMPLE

Discussion

Comments 0

Post Your Comment

Files in this torrent

FILENAMESIZE
Arrival 2016 HDCAM x264 AC3-TuttyFruitty.mkv2.1 GB
Sample.mkv15.6 MB
.