Arrival 2016 HDCAM NAKRO.[PRiME]

Torrent Details

Arrival 2016 HDCAM NAKRO.[PRiME]

NAME
Arrival 2016 HDCAM NAKRO.[PRiME].torrent
CATEGORY
Movies
INFOHASH
fb1911105e837b14959310bb2769b6f51bf07a4d
SIZE
1.3 GB in 2 files
ADDED
Uploaded on 20-11-2016 by our crawler pet called "Spidey".
SWARM
19 seeders & 3 peers
RATING
No votes yet.

Please login to vote for this torrent.
Loading...


Description


Arrival 2016 HDCAM NAKRO.[PRiME]

ImDb: http://www.imdb.com/title/tt2543164



Complete name : Arrival 2016 HDCAM NAKRO[PRiME].avi
Format : AVI
Format/Info : Audio Video Interleave
File size : 1.28 GiB
Duration : 2 h 19 min
Overall bit rate : 1 320 kb/s

Video
ID : 0
Format : MPEG-4 Visual
Format profile : Advanced [email protected]/* */
Format settings, BVOP : 2
Format settings, QPel : No
Format settings, GMC : No warppoints
Format settings, Matrix : Default (H.263)
Codec ID : DIVX
Codec ID/Info : Project Mayo
Codec ID/Hint : DivX 4
Duration : 2 h 19 min
Bit rate : 1 116 kb/s
Width : 720 pixels
Height : 320 pixels
Display aspect ratio : 2.25:1
Frame rate : 28.986 FPS
Color space : YUV
Chroma subsampling : 4:2:0
Bit depth : 8 bits
Scan type : Progressive
Compression mode : Lossy
Bits/(Pixel*Frame) : 0.167
Stream size : 1.09 GiB (85%)
Writing library : XviD 64

Audio
ID : 1
Format : AC-3
Format/Info : Audio Coding 3
Mode extension : CM (complete main)
Format settings, Endianness : Big
Codec ID : 2000
Duration : 2 h 19 min
Bit rate mode : Constant
Bit rate : 192 kb/s
Channel(s) : 2 channels
Channel positions : Front: L R
Sampling rate : 44.1 kHz
Frame rate : 28.711 FPS (1536 spf)
Bit depth : 16 bits
Compression mode : Lossy
Stream size : 191 MiB (15%)
Alignment : Aligned on interleaves
Interleave, duration : 35 ms (1.01 video frame)





Discussion

Comments 0

Post Your Comment

Files in this torrent

FILENAMESIZE
Arrival 2016 HDCAM NAKRO[PRiME].avi1.3 GB
Please Support!! Read More!!!.txt232 B
.