Moana 2016 TS X264 AC3 TiTAN.[PRiME]

Torrent Details

Moana 2016 TS x264 AC3 TiTAN.[PRiME]

NAME
Moana 2016 TS x264 AC3 TiTAN.[PRiME].torrent
CATEGORY
Movies
INFOHASH
02816359e2363073adb530e72a9e1da9de9b0c9b
SIZE
1.6 GB in 2 files
ADDED
Uploaded on 03-12-2016 by our crawler pet called "Spidey".
SWARM
12 seeders & 3 peers
RATING
No votes yet.

Please login to vote for this torrent.
Loading...


Description


Moana 2016 TS x264 AC3 TiTAN.[PRiME]

ImDb: http://www.imdb.com/title/tt3521164



Complete name : Moana 2016 TS x264 AC3 TiTAN[PRiME].mkv
Format : Matroska
Format version : Version 2
File size : 1.60 GiB
Duration : 1 h 33 min
Overall bit rate mode : Variable
Overall bit rate : 2 444 kb/s
Encoded date : UTC 2016-12-02 23:59:10
Writing application : mkvmerge v8.5.2 ('Crosses') 32bit
Writing library : libebml v1.3.3 + libmatroska v1.4.4

Video
ID : 1
Format : AVC
Format/Info : Advanced Video Codec
Format profile : [email protected]/* */
Format settings, CABAC : Yes
Format settings, ReFrames : 3 frames
Codec ID : V_MPEG4/ISO/AVC
Duration : 1 h 33 min
Bit rate mode : Variable
Bit rate : 2 250 kb/s
Maximum bit rate : 40.0 Mb/s
Width : 720 pixels
Height : 328 pixels
Display aspect ratio : 2.2:1
Frame rate mode : Constant
Frame rate : 30.000 FPS
Color space : YUV
Chroma subsampling : 4:2:0
Bit depth : 8 bits
Scan type : Progressive
Bits/(Pixel*Frame) : 0.318
Stream size : 1.47 GiB (92%)
Writing library : x264 core 148 r2638 7599210
Encoding settings : cabac=1 / ref=4 / deblock=1:-1:-1 / analyse=0x3:0x133 / me=umh / subme=10 / psy=1 / psy_rd=1.00:0.15 / mixed_ref=1 / me_range=24 / chroma_me=1 / trellis=2 / 8x8dct=1 / cqm=0 / deadzone=21,11 / fast_pskip=1 / chroma_qp_offset=-3 / threads=10 / lookahead_threads=1 / sliced_threads=0 / slices=4 / nr=0 / decimate=1 / interlaced=0 / bluray_compat=0 / constrained_intra=0 / bframes=3 / b_pyramid=1 / b_adapt=2 / b_bias=0 / direct=3 / weightb=1 / open_gop=0 / weightp=0 / keyint=29 / keyint_min=2 / scenecut=40 / intra_refresh=0 / rc_lookahead=29 / rc=2pass / mbtree=1 / bitrate=2250 / ratetol=1.0 / qcomp=0.60 / qpmin=10 / qpmax=51 / qpstep=4 / cplxblur=20.0 / qblur=0.5 / vbv_maxrate=40000 / vbv_bufsize=30000 / nal_hrd=vbr / filler=0 / ip_ratio=1.40 / aq=1:1.00
Default : Yes
Forced : No
Color range : Full
Color primaries : BT.709
Transfer characteristics : BT.709
Matrix coefficients : BT.709

Audio
ID : 2
Format : AC-3
Format/Info : Audio Coding 3
Mode extension : CM (complete main)
Format settings, Endianness : Big
Codec ID : A_AC3
Duration : 1 h 33 min
Bit rate mode : Constant
Bit rate : 192 kb/s
Channel(s) : 2 channels
Channel positions : Front: L R
Sampling rate : 44.1 kHz
Frame rate : 28.711 FPS (1536 spf)
Compression mode : Lossy
Delay relative to video : 9 ms
Stream size : 129 MiB (8%)
Language : English
Default : Yes
Forced : No





Discussion

Comments 0

Post Your Comment

Files in this torrent

FILENAMESIZE
Moana 2016 TS x264 AC3 TiTAN[PRiME].mkv1.6 GB
Please Support!! Read More!!!.txt232 B
.