Rogue.One.A.Star.Wars.Story.2016.HDCAM.AAC.2CH.x264.AVC-GunGravE[PRiME]

Torrent Details

Rogue.One.A.Star.Wars.Story.2016.HDCAM.AAC.2CH.x264.AVC-GunGravE[PRiME]

NAME
Rogue.One.A.Star.Wars.Story.2016.HDCAM.AAC.2CH.x264.AVC-GunGravE[PRiME].torrent
CATEGORY
Movies
INFOHASH
fa2ef496a200a068382b9e5ced9b463b1e11d032
SIZE
1019 MB in 2 files
ADDED
Uploaded on 17-12-2016 by our crawler pet called "Spidey".
SWARM
0 seeders & 0 peers
RATING
No votes yet.

Please login to vote for this torrent.
Loading...


Description


Rogue.One.A.Star.Wars.Story.2016.HDCAM.AAC.2CH.x264.AVC-GunGravE[PRiME]

ImDb: http://www.imdb.com/title/tt3748528



Complete name : Rogue.One.A.Star.Wars.Story.2016.HDCAM.AAC.2CH.x264.AVC-GunGravE[PRiME].mkv
Format : Matroska
Format version : Version 4 / Version 2
File size : 1 019 MiB
Duration : 2 h 5 min
Overall bit rate : 1 134 kb/s
Encoded date : UTC 2016-12-17 11:40:54
Writing application : mkvmerge v8.6.1 ('Flying') 32bit
Writing library : libebml v1.3.3 + libmatroska v1.4.4

Video
ID : 1
Format : AVC
Format/Info : Advanced Video Codec
Format profile : [email protected]/* */
Format settings, CABAC : Yes
Format settings, ReFrames : 4 frames
Codec ID : V_MPEG4/ISO/AVC
Duration : 2 h 5 min
Bit rate : 1 035 kb/s
Width : 720 pixels
Height : 308 pixels
Display aspect ratio : 2.35:1
Original display aspect ratio : 2.35:1
Frame rate mode : Constant
Frame rate : 29.970 (30000/1001) FPS
Original frame rate : 29.970 (29970/1000) FPS
Color space : YUV
Chroma subsampling : 4:2:0
Bit depth : 8 bits
Scan type : Progressive
Bits/(Pixel*Frame) : 0.156
Stream size : 930 MiB (91%)
Writing library : x264 core 148 r2721kMod 72d53ab
Encoding settings : cabac=1 / ref=3 / deblock=1:-1:-1 / analyse=0x3:0x113 / me=hex / subme=7 / psy=1 / fade_compensate=0.00 / psy_rd=1.00:0.00 / mixed_ref=1 / me_range=16 / chroma_me=1 / trellis=1 / 8x8dct=1 / cqm=0 / deadzone=21,11 / fast_pskip=1 / chroma_qp_offset=-2 / threads=7 / lookahead_threads=1 / sliced_threads=0 / nr=0 / decimate=1 / interlaced=0 / bluray_compat=0 / constrained_intra=0 / fgo=0 / bframes=3 / b_pyramid=2 / b_adapt=1 / b_bias=0 / direct=1 / weightb=1 / open_gop=0 / weightp=2 / keyint=250 / keyint_min=25 / scenecut=40 / intra_refresh=0 / rc_lookahead=40 / rc=crf / mbtree=1 / crf=18.0000 / qcomp=0.60 / qpmin=0 / qpmax=69 / qpstep=4 / ip_ratio=1.40 / aq=1:1.00
Default : Yes
Forced : No

Audio
ID : 2
Format : AAC
Format/Info : Advanced Audio Codec
Format profile : LC
Codec ID : A_AAC
Duration : 2 h 5 min
Bit rate : 96.0 kb/s
Channel(s) : 2 channels
Channel positions : Front: L R
Sampling rate : 48.0 kHz
Frame rate : 46.875 FPS (1024 spf)
Compression mode : Lossy
Delay relative to video : 9 ms
Stream size : 86.2 MiB (8%)
Default : Yes
Forced : No

Menu
00:00:00.054 : en:00:00:00.054





Discussion

Comments 0

Post Your Comment

Files in this torrent

FILENAMESIZE
Please Support!! Read More!!!.txt232 B
Rogue.One.A.Star.Wars.Story.2016.HDCAM.AAC.2CH.x264.AVC-GunGravE[PRiME].mkv1018.5 MB
.