Rogue.One.A.Star.Wars.Story.2016.HD-TS.x264-CPG[PRiME]

Torrent Details

Rogue.One.A.Star.Wars.Story.2016.HD-TS.x264-CPG[PRiME]

NAME
Rogue.One.A.Star.Wars.Story.2016.HD-TS.x264-CPG[PRiME].torrent
CATEGORY
Movies
INFOHASH
0514a28fcde72e3d616439667c1fe6c6519333de
SIZE
2.2 GB in 4 files
ADDED
Uploaded on 18-12-2016 by our crawler pet called "Spidey".
SWARM
15 seeders & 9 peers
RATING
No votes yet.

Please login to vote for this torrent.
Loading...


Description


Rogue.One.A.Star.Wars.Story.2016.HD-TS.x264-CPG[PRiME]

ImDb: http://www.imdb.com/title/tt3748528



Complete name : Rogue One A Star Wars Story 2016 HD-TS x264-CPG[PRiME].mkv
Format : Matroska
Format version : Version 4 / Version 2
File size : 2.19 GiB
Duration : 2 h 5 min
Overall bit rate mode : Variable
Overall bit rate : 2 496 kb/s
Movie name : SeeHD.Se
Encoded date : UTC 2016-12-17 16:00:59
Writing application : mkvmerge v9.4.0 ('Knurl') 32bit
Writing library : libebml v1.3.4 + libmatroska v1.4.5

Video
ID : 1
Format : AVC
Format/Info : Advanced Video Codec
Format profile : [email protected]/* */
Format settings, CABAC : Yes
Format settings, ReFrames : 4 frames
Codec ID : V_MPEG4/ISO/AVC
Duration : 2 h 5 min
Bit rate mode : Variable
Bit rate : 2 301 kb/s
Maximum bit rate : 62.5 Mb/s
Width : 720 pixels
Height : 304 pixels
Display aspect ratio : 2.35:1
Frame rate mode : Constant
Frame rate : 30.000 FPS
Color space : YUV
Chroma subsampling : 4:2:0
Bit depth : 8 bits
Scan type : Progressive
Bits/(Pixel*Frame) : 0.350
Stream size : 2.02 GiB (92%)
Default : Yes
Forced : No
Color range : Full
Color primaries : BT.709
Transfer characteristics : BT.709
Matrix coefficients : BT.709

Audio
ID : 2
Format : MPEG Audio
Format version : Version 1
Format profile : Layer 3
Codec ID : A_MPEG/L3
Codec ID/Hint : MP3
Duration : 2 h 5 min
Bit rate mode : Constant
Bit rate : 192 kb/s
Channel(s) : 2 channels
Sampling rate : 44.1 kHz
Frame rate : 38.281 FPS (1152 spf)
Compression mode : Lossy
Delay relative to video : 26 ms
Stream size : 172 MiB (8%)
Title : English
Default : Yes
Forced : No





Discussion

Comments 0

Post Your Comment

Files in this torrent

FILENAMESIZE
Please Support!! Read More!!!.txt232 B
Rogue One A Star Wars Story 2016 HD-TS x264-CPG[PRiME].mkv2.2 GB
Sample/Sample 1[PRiME].mkv15.3 MB
Sample/Sample 2[PRiME].mkv21.4 MB
.