Rogue One A Star Wars Story 2016 READNFO TS XviD AC3 ACAB.[PRiME]

Torrent Details

Rogue One A Star Wars Story 2016 READNFO TS XviD AC3 ACAB.[PRiME]

NAME
Rogue One A Star Wars Story 2016 READNFO TS XviD AC3 ACAB.[PRiME].torrent
CATEGORY
Movies
INFOHASH
0346865b451b43552bfaf2960ad87d14cf5ee054
SIZE
1.7 GB in 3 files
ADDED
Uploaded on 18-12-2016 by our crawler pet called "Spidey".
SWARM
13 seeders & 3 peers
RATING
No votes yet.

Please login to vote for this torrent.
Loading...


Description


Rogue One A Star Wars Story 2016 READNFO TS XviD AC3 ACAB.[PRiME]

ImDb: http://www.imdb.com/title/tt3748528



Complete name : Rogue One A Star Wars Story 2016 READNFO TS XviD AC3 ACAB[PRiME].avi
Format : AVI
Format/Info : Audio Video Interleave
File size : 1.65 GiB
Duration : 2 h 5 min
Overall bit rate : 1 887 kb/s
Writing library : VirtualDub build 30091/release

Video
ID : 0
Format : MPEG-4 Visual
Format profile : Advanced [email protected]/* */
Format settings, BVOP : 2
Format settings, QPel : No
Format settings, GMC : No warppoints
Format settings, Matrix : Default (H.263)
Muxing mode : Packed bitstream
Codec ID : XVID
Codec ID/Hint : XviD
Duration : 2 h 5 min
Bit rate : 1 749 kb/s
Width : 720 pixels
Height : 288 pixels
Display aspect ratio : 2.500
Frame rate : 23.976 (23976/1000) FPS
Color space : YUV
Chroma subsampling : 4:2:0
Bit depth : 8 bits
Scan type : Progressive
Compression mode : Lossy
Bits/(Pixel*Frame) : 0.352
Stream size : 1.53 GiB (93%)
Writing library : XviD 67

Audio
ID : 1
Format : AC-3
Format/Info : Audio Coding 3
Mode extension : CM (complete main)
Format settings, Endianness : Big
Codec ID : 2000
Duration : 2 h 5 min
Bit rate mode : Constant
Bit rate : 128 kb/s
Channel(s) : 2 channels
Channel positions : Front: L R
Sampling rate : 44.1 kHz
Frame rate : 28.711 FPS (1536 spf)
Compression mode : Lossy
Stream size : 115 MiB (7%)
Alignment : Split accross interleaves
Interleave, duration : 42 ms (1.00 video frame)
Interleave, preload duration : 500 ms





Discussion

Comments 0

Post Your Comment

Files in this torrent

FILENAMESIZE
Please Support!! Read More!!!.txt232 B
Rogue One A Star Wars Story 2016 READNFO TS XviD AC3 ACAB[PRiME].avi1.7 GB
Sample/Rogue One A Star Wars Story 2016 READNFO TS XviD AC3 ACAB sample[PRiME].avi9.4 MB
.