Rogue One A Star Wars Story 2016 HDTS X264 AC3-Garmin.[PRiME]

Torrent Details

Rogue One A Star Wars Story 2016 HDTS x264 AC3-Garmin.[PRiME]

NAME
Rogue One A Star Wars Story 2016 HDTS x264 AC3-Garmin.[PRiME].torrent
CATEGORY
Movies
INFOHASH
df648d30e9017a42cd52cf7c9e06aa95f51e51b0
SIZE
2.2 GB in 3 files
ADDED
Uploaded on 18-12-2016 by our crawler pet called "Spidey".
SWARM
11 seeders & 5 peers
RATING
No votes yet.

Please login to vote for this torrent.
Loading...


Description


Rogue One A Star Wars Story 2016 HDTS x264 AC3-Garmin.[PRiME]

ImDb: http://www.imdb.com/title/tt3748528



Complete name : Rogue One A Star Wars Story 2016 HDTS x264[PRiME].mkv
Format : Matroska
Format version : Version 4 / Version 2
File size : 2.20 GiB
Duration : 2 h 5 min
Overall bit rate mode : Variable
Overall bit rate : 2 504 kb/s
Encoded date : UTC 2016-12-18 17:42:46
Writing application : mkvmerge v9.2.0 ('Photograph') 64bit
Writing library : libebml v1.3.3 + libmatroska v1.4.4

Video
ID : 1
Format : AVC
Format/Info : Advanced Video Codec
Format profile : [email protected]/* */
Format settings, CABAC : Yes
Format settings, ReFrames : 3 frames
Codec ID : V_MPEG4/ISO/AVC
Duration : 2 h 5 min
Bit rate mode : Variable
Bit rate : 2 311 kb/s
Maximum bit rate : 62.5 Mb/s
Width : 720 pixels
Height : 304 pixels
Display aspect ratio : 2.35:1
Frame rate mode : Constant
Frame rate : 29.970 (30000/1001) FPS
Color space : YUV
Chroma subsampling : 4:2:0
Bit depth : 8 bits
Scan type : Progressive
Bits/(Pixel*Frame) : 0.352
Stream size : 2.03 GiB (92%)
Writing library : x264 core 148 r2638 7599210
Encoding settings : cabac=1 / ref=3 / deblock=1:-1:-1 / analyse=0x3:0x113 / me=hex / subme=7 / psy=1 / psy_rd=1.00:0.85 / mixed_ref=1 / me_range=16 / chroma_me=1 / trellis=1 / 8x8dct=1 / cqm=0 / deadzone=21,11 / fast_pskip=1 / chroma_qp_offset=-4 / threads=2 / lookahead_threads=1 / sliced_threads=0 / nr=0 / decimate=1 / interlaced=0 / bluray_compat=0 / constrained_intra=0 / bframes=3 / b_pyramid=1 / b_adapt=1 / b_bias=0 / direct=1 / weightb=1 / open_gop=0 / weightp=2 / keyint=300 / keyint_min=29 / scenecut=50 / intra_refresh=0 / rc_lookahead=40 / rc=2pass / mbtree=1 / bitrate=2311 / ratetol=1.0 / qcomp=0.60 / qpmin=0 / qpmax=69 / qpstep=4 / cplxblur=20.0 / qblur=0.5 / vbv_maxrate=62500 / vbv_bufsize=78125 / nal_hrd=vbr / filler=0 / ip_ratio=1.40 / aq=1:1.00
Language : English
Default : Yes
Forced : Yes

Audio
ID : 2
Format : AC-3
Format/Info : Audio Coding 3
Mode extension : CM (complete main)
Format settings, Endianness : Big
Codec ID : A_AC3
Duration : 2 h 5 min
Bit rate mode : Constant
Bit rate : 192 kb/s
Channel(s) : 2 channels
Channel positions : Front: L R
Sampling rate : 44.1 kHz
Frame rate : 28.711 FPS (1536 spf)
Compression mode : Lossy
Stream size : 172 MiB (8%)
Language : English
Default : Yes
Forced : Yes





Discussion

Comments 0

Post Your Comment

Files in this torrent

FILENAMESIZE
Please Support!! Read More!!!.txt232 B
Rogue One A Star Wars Story 2016 HDTS x264[PRiME].mkv2.2 GB
Sample/Rogue One A Star Wars Story 2016 HDTS x264 sample[PRiME].mkv51.8 MB
.