Rogue One A Star Wars Story 2016 HDTS X264 AC3-Garmin

Torrent Details

Rogue One A Star Wars Story 2016 HDTS x264 AC3-Garmin

NAME
Rogue One A Star Wars Story 2016 HDTS x264 AC3-Garmin.torrent
CATEGORY
Movies
INFOHASH
d0c0bc00f87fdd43ace46af96ec3bb183e1a3ae2
SIZE
2.2 GB in 3 files
ADDED
Uploaded on 19-12-2016 by our crawler pet called "Spidey".
SWARM
15 seeders & 9 peers
RATING
No votes yet.

Please login to vote for this torrent.
Loading...


Description

Rogue One A Star Wars Story 2016 HDTS x264 AC3-Garmin





Complete name : Rogue One A Star Wars Story 2016 HDTS x264.mkv
Format : Matroska
Format version : Version 4 / Version 2
File size : 2.20 GiB
Duration : 2h 5mn

Video
ID : 1
Format : AVC
Format/Info : Advanced Video Codec
Format profile : [email protected]/* */
Format settings, CABAC : Yes
Format settings, ReFrames : 3 frames
Codec ID : V_MPEG4/ISO/AVC
Duration : 2h 5mn
Bit rate mode : Variable
Bit rate : 2 311 Kbps
Maximum bit rate : 62.5 Mbps
Width : 720 pixels
Height : 304 pixels
Display aspect ratio : 2.35:1
Frame rate mode : Constant
Frame rate : 29.970 fps
Color space : YUV
Chroma subsampling : 4:2:0
Bit depth : 8 bits
Scan type : Progressive
Bits/(Pixel*Frame) : 0.352
Stream size : 1.98 GiB (90%)
Writing library : x264 core 148 r2638 7599210
Encoding settings : cabac=1 / ref=3 / deblock=1:-1:-1 / analyse=0x3:0x113 /
me=hex / subme=7 / psy=1 / psy_rd=1.00:0.85 / mixed_ref=1 / me_range=16 / chroma_me=1 / trellis=1 /
8x8dct=1 / cqm=0 / deadzone=21,11 / fast_pskip=1 / chroma_qp_offset=-4 / threads=2 / lookahead_threads=1
/ sliced_threads=0 / nr=0 / decimate=1 / interlaced=0 / bluray_compat=0 / constrained_intra=0 /
bframes=3 / b_pyramid=1 / b_adapt=1 / b_bias=0 / direct=1 / weightb=1 / open_gop=0 / weightp=2 /
keyint=300 / keyint_min=29 / scenecut=50 / intra_refresh=0 / rc_lookahead=40 / rc=2pass / mbtree=1 /
bitrate=2311 / ratetol=1.0 / qcomp=0.60 / qpmin=0 / qpmax=69 / qpstep=4 / cplxblur=20.0 / qblur=0.5 /
vbv_maxrate=62500 / vbv_bufsize=78125 / nal_hrd=vbr / filler=0 / ip_ratio=1.40 / aq=1:1.00

Language : English
Default : Yes
Forced : Yes
ID : 2
Format : AC-3
Format/Info : Audio Coding 3
Mode extension : CM (complete main)
Format settings, Endianness : Big
Codec ID : A_AC3
Duration : 2h 5mn
Bit rate mode : Constant
Bit rate : 192 Kbps
Channel(s) : 2 channels
Channel positions : Front: L R
Sampling rate : 44.1 KHz
Compression mode : Lossy
Stream size : 172 MiB (8%)
Language : English
Default : Yes
Forced : Yes

Subs : N/A
Source Video + Source Audio : UnKnOWn/NAKRO
Sample Included : Yes
IMDB : http://www.imdb.com/title/tt3748528/

Here we are with our version of Rogue One. We took Unknowns video and did
some work to it like lowering the yellow and blue cleaned it up increased
the brightness so you can see the dark parts better rotated and fixed
perspective. Then we synced Nakros line audio to it. As always check sample
as screens always look better.

Screens:

Discussion

Comments 0

Post Your Comment

Files in this torrent

FILENAMESIZE
rogue info.txt3.3 KB
Rogue One A Star Wars Story 2016 HDTS x264 sample.mkv51.8 MB
Rogue One A Star Wars Story 2016 HDTS x264.mkv2.2 GB
.