The.Autopsy.of.Jane.Doe.2016.720p.WEB-DL.x264.AC3-Moita[PRiME]

Torrent Details

The.Autopsy.of.Jane.Doe.2016.720p.WEB-DL.x264.AC3-Moita[PRiME]

NAME
The.Autopsy.of.Jane.Doe.2016.720p.WEB-DL.x264.AC3-Moita[PRiME].torrent
CATEGORY
Movies
INFOHASH
df39de477e4ebe85cccc520017ba3e507d7d040c
SIZE
1.5 GB in 3 files
ADDED
Uploaded on 20-12-2016 by our crawler pet called "Spidey".
SWARM
6 seeders & 5 peers
RATING
No votes yet.

Please login to vote for this torrent.


Description


The.Autopsy.of.Jane.Doe.2016.720p.WEB-DL.x264.AC3-Moita[PRiME]

ImDb: http://www.imdb.com/title/tt3289956



Complete name : The.Autopsy.of.Jane.Doe.2016.720p.WEB-DL.x264.AC3-Moita[PRiME].mkv
Format : Matroska
Format version : Version 2
File size : 1.44 GiB
Duration : 1 h 26 min
Overall bit rate : 2 386 kb/s
Movie name : The.Autopsy.of.Jane.Doe.2016.1080p.WEB-DL.DD5.1.H264-FGT
Encoded date : UTC 2016-12-20T10:22:59Z
Writing application : HandBrake 0.10.5 2016021100
Writing library : Lavf55.12.0 / Lavf55.12.0

Video
ID : 1
Format : AVC
Format/Info : Advanced Video Codec
Format profile : [email protected]/* */
Format settings, CABAC : Yes
Format settings, ReFrames : 4 frames
Codec ID : V_MPEG4/ISO/AVC
Duration : 1 h 26 min
Bit rate : 2 000 kb/s
Width : 1 280 pixels
Height : 528 pixels
Display aspect ratio : 2.40:1
Frame rate mode : Constant
Frame rate : 23.976 FPS
Color space : YUV
Chroma subsampling : 4:2:0
Bit depth : 8 bits
Scan type : Progressive
Bits/(Pixel*Frame) : 0.123
Stream size : 1.18 GiB (82%)
Writing library : x264 core 142 r2479 dd79a61
Encoding settings : cabac=1 / ref=1 / deblock=1:0:0 / analyse=0x3:0x113 / me=hex / subme=2 / psy=1 / psy_rd=1.00:0.00 / mixed_ref=0 / me_range=16 / chroma_me=1 / trellis=0 / 8x8dct=1 / cqm=0 / deadzone=21,11 / fast_pskip=1 / chroma_qp_offset=0 / threads=12 / lookahead_threads=4 / sliced_threads=0 / nr=0 / decimate=1 / interlaced=0 / bluray_compat=0 / constrained_intra=0 / bframes=3 / b_pyramid=2 / b_adapt=1 / b_bias=0 / direct=1 / weightb=1 / open_gop=0 / weightp=1 / keyint=240 / keyint_min=24 / scenecut=40 / intra_refresh=0 / rc_lookahead=10 / rc=2pass / mbtree=1 / bitrate=2000 / ratetol=1.0 / qcomp=0.60 / qpmin=0 / qpmax=69 / qpstep=4 / cplxblur=20.0 / qblur=0.5 / vbv_maxrate=62500 / vbv_bufsize=78125 / nal_hrd=none / filler=0 / ip_ratio=1.40 / aq=1:1.00
Default : Yes
Forced : No
Color range : Limited
Color primaries : BT.709
Transfer characteristics : BT.709
Matrix coefficients : BT.709

Audio
ID : 2
Format : AC-3
Format/Info : Audio Coding 3
Format profile : Dolby Digital
Mode extension : CM (complete main)
Format settings, Endianness : Big
Codec ID : A_AC3
Duration : 1 h 26 min
Bit rate mode : Constant
Bit rate : 384 kb/s
Channel(s) : 2 channels
Channel positions : Front: L R
Sampling rate : 48.0 kHz
Frame rate : 31.250 FPS (1536 spf)
Compression mode : Lossy
Delay relative to video : -5 ms
Stream size : 237 MiB (16%)
Title : Stereo
Language : English
Default : Yes
Forced : No

Menu
00:00:00.000 : :1
00:10:03.561 : :2
00:20:03.453 : :3
00:30:30.163 : :4
00:40:25.884 : :5
00:50:23.523 : :6
01:00:38.305 : :7
01:09:57.489 : :8
01:21:44.988 : :9





Discussion

Comments 0

Post Your Comment

Files in this torrent

FILENAMESIZE
Please Support!! Read More!!!.txt232 B
Sample/Sample[PRiME].mkv18.8 MB
The.Autopsy.of.Jane.Doe.2016.720p.WEB-DL.x264.AC3-Moita[PRiME].mkv1.4 GB
.