Vikings.S04E14.720p.HDTV.x264-FLEET[PRiME]

Torrent Details

Vikings.S04E14.720p.HDTV.x264-FLEET[PRiME]

NAME
Vikings.S04E14.720p.HDTV.x264-FLEET[PRiME].torrent
CATEGORY
Television
INFOHASH
da85a1c9e645cc050d897dec5117666f9245333b
SIZE
777 MB in 2 files
ADDED
Uploaded on 22-12-2016 by our crawler pet called "Spidey".
SWARM
87 seeders & 8 peers
RATING
No votes yet.

Please login to vote for this torrent.


Description


Vikings.S04E14.720p.HDTV.x264-FLEET[PRiME]



Complete name : Vikings.S04E14.720p.HDTV.x264-FLEET[PRiME].mkv
Format : Matroska
Format version : Version 2
File size : 777 MiB
Duration : 43 min 29 s
Overall bit rate : 2 497 kb/s
Writing application : x264.exe
Writing library : mkv2rls x264-tv version built on 2016.10.12

Video
ID : 1
Format : AVC
Format/Info : Advanced Video Codec
Format profile : [email protected]/* */
Format settings, CABAC : Yes
Format settings, ReFrames : 5 frames
Codec ID : V_MPEG4/ISO/AVC
Duration : 43 min 29 s
Bit rate : 2 064 kb/s
Width : 1 278 pixels
Height : 720 pixels
Display aspect ratio : 16:9
Frame rate mode : Constant
Frame rate : 23.976 (24000/1001) FPS
Color space : YUV
Chroma subsampling : 4:2:0
Bit depth : 8 bits
Scan type : Progressive
Bits/(Pixel*Frame) : 0.094
Stream size : 642 MiB (83%)
Writing library : x264 core 148 r2744 b97ae06
Encoding settings : cabac=1 / ref=5 / deblock=1:-2:-2 / analyse=0x3:0x113 / me=hex / subme=8 / psy=1 / psy_rd=1.05:0.00 / mixed_ref=1 / me_range=16 / chroma_me=1 / trellis=2 / 8x8dct=1 / cqm=0 / deadzone=21,11 / fast_pskip=1 / chroma_qp_offset=-2 / threads=18 / lookahead_threads=3 / sliced_threads=0 / nr=0 / decimate=1 / interlaced=0 / bluray_compat=0 / constrained_intra=0 / bframes=5 / b_pyramid=2 / b_adapt=1 / b_bias=0 / direct=3 / weightb=1 / open_gop=0 / weightp=2 / keyint=250 / keyint_min=23 / scenecut=40 / intra_refresh=0 / rc_lookahead=50 / rc=crf / mbtree=1 / crf=18.0 / qcomp=0.60 / qpmin=0 / qpmax=69 / qpstep=4 / ip_ratio=1.40 / aq=1:0.80
Language : English
Default : Yes
Forced : No
Color range : Limited
Matrix coefficients : BT.709

Audio
ID : 2
Format : AC-3
Format/Info : Audio Coding 3
Mode extension : CM (complete main)
Format settings, Endianness : Big
Codec ID : A_AC3
Duration : 43 min 29 s
Bit rate mode : Constant
Bit rate : 384 kb/s
Channel(s) : 6 channels
Channel positions : Front: L C R, Side: L R, LFE
Sampling rate : 48.0 kHz
Frame rate : 31.250 FPS (1536 spf)
Compression mode : Lossy
Stream size : 119 MiB (15%)
Language : English
Default : Yes
Forced : No

Text
ID : 3
Format : UTF-8
Codec ID : S_TEXT/UTF8
Codec ID/Info : UTF-8 Plain Text
Title : English
Language : English
Default : No
Forced : No





Discussion

Comments 0

Post Your Comment

Files in this torrent

FILENAMESIZE
Please Support!! Read More!!!.txt232 B
Vikings.S04E14.720p.HDTV.x264-FLEET[PRiME].mkv776.9 MB
.