Rogue.One.A.Star.Wars.Story.2016.ENG.720p.HQHDTS.x264.AC3-PolishQuality[PRiME]

Torrent Details

Rogue.One.A.Star.Wars.Story.2016.ENG.720p.HQHDTS.x264.AC3-PolishQuality[PRiME]

NAME
Rogue.One.A.Star.Wars.Story.2016.ENG.720p.HQHDTS.x264.AC3-PolishQuality[PRiME].torrent
CATEGORY
Movies
INFOHASH
b9c58bf78deded68da50a6e989d28cc487e096b9
SIZE
2.9 GB in 2 files
ADDED
Uploaded on 25-12-2016 by our crawler pet called "Spidey".
SWARM
52 seeders & 15 peers
RATING
No votes yet.

Please login to vote for this torrent.
Loading...


Description


Rogue.One.A.Star.Wars.Story.2016.ENG.720p.HQHDTS.x264.AC3-PolishQuality[PRiME]

ImDb: http://www.imdb.com/title/tt3748528



Complete name : Rogue.One.A.Star.Wars.Story.2016.ENG.720p.HQHDTS.x264.AC3-PolishQuality[PRiME].mkv
Format : Matroska
Format version : Version 4 / Version 2
File size : 2.86 GiB
Duration : 2 h 5 min
Overall bit rate : 3 257 kb/s
Encoded date : UTC 2016-12-24 13:09:03
Writing application : mkvmerge v8.2.0 ('World of Adventure') 32bit
Writing library : libebml v1.3.1 + libmatroska v1.4.2

Video
ID : 1
Format : AVC
Format/Info : Advanced Video Codec
Format profile : [email protected]/* */
Format settings, CABAC : Yes
Format settings, ReFrames : 11 frames
Codec ID : V_MPEG4/ISO/AVC
Duration : 2 h 5 min
Bit rate : 3 000 kb/s
Width : 1 280 pixels
Height : 552 pixels
Display aspect ratio : 2.35:1
Frame rate mode : Constant
Frame rate : 23.976 (24000/1001) FPS
Color space : YUV
Chroma subsampling : 4:2:0
Bit depth : 8 bits
Scan type : Progressive
Bits/(Pixel*Frame) : 0.177
Stream size : 2.63 GiB (92%)
Writing library : x264 core 148 r2744 b97ae06
Encoding settings : cabac=1 / ref=11 / deblock=1:-3:-3 / analyse=0x3:0x113 / me=tesa / subme=9 / psy=1 / psy_rd=1.05:0.00 / mixed_ref=1 / me_range=32 / chroma_me=1 / trellis=1 / 8x8dct=1 / cqm=0 / deadzone=21,11 / fast_pskip=1 / chroma_qp_offset=-2 / threads=12 / lookahead_threads=1 / sliced_threads=0 / nr=0 / decimate=1 / interlaced=0 / bluray_compat=0 / constrained_intra=0 / bframes=11 / b_pyramid=2 / b_adapt=1 / b_bias=0 / direct=1 / weightb=1 / open_gop=0 / weightp=2 / keyint=240 / keyint_min=23 / scenecut=40 / intra_refresh=0 / rc_lookahead=40 / rc=2pass / mbtree=0 / bitrate=3000 / ratetol=1.0 / qcomp=0.70 / qpmin=0 / qpmax=69 / qpstep=4 / cplxblur=20.0 / qblur=0.5 / vbv_maxrate=62500 / vbv_bufsize=78125 / nal_hrd=none / filler=0 / ip_ratio=1.40 / pb_ratio=1.30 / aq=1:0.70
Language : English
Default : Yes
Forced : No
Color range : Limited
Matrix coefficients : BT.709

Audio
ID : 2
Format : AC-3
Format/Info : Audio Coding 3
Mode extension : CM (complete main)
Format settings, Endianness : Big
Codec ID : A_AC3
Duration : 2 h 5 min
Bit rate mode : Constant
Bit rate : 256 kb/s
Channel(s) : 2 channels
Channel positions : Front: L R
Sampling rate : 48.0 kHz
Frame rate : 31.250 FPS (1536 spf)
Compression mode : Lossy
Stream size : 230 MiB (8%)
Default : Yes
Forced : No

Menu
00:00:00.000 : en:(01)00:00:00:000
00:08:53.000 : en:(02)00:08:53:000
00:17:45.000 : en:(03)00:17:45:000
00:26:38.000 : en:(04)00:26:38:000
00:35:30.000 : en:(05)00:35:30:000
00:44:23.000 : en:(06)00:44:23:000
00:53:15.000 : en:(07)00:53:15:000
01:02:07.000 : en:(08)01:02:07:000
01:10:01.000 : en:(09)01:10:01:000
01:17:55.000 : en:(10)01:17:55:000
01:25:49.000 : en:(11)01:25:49:000
01:33:43.000 : en:(12)01:33:43:000
01:41:37.000 : en:(13)01:41:37:000
01:49:31.000 : en:(14)01:49:31:000
01:57:25.000 : en:(15)01:57:25:000





Discussion

Comments 0

Post Your Comment

Files in this torrent

FILENAMESIZE
Please Support!! Read More!!!.txt232 B
Rogue.One.A.Star.Wars.Story.2016.ENG.720p.HQHDTS.x264.AC3-PolishQuality[PRiME].mkv2.9 GB
.